ShareSpark.net

:::: Dubbed Zone (Dubbed English in Hindi) => English Movies Dubbed in Hindi => High Resolution Movies => Topic started by: Rάήνίјάч1234 on January 06, 2019, 10:03:00 PM

Title: Jack Ryan: Shadow Recruit (2014) 1080p BluRay x264 Dual Audio [Hindi DD5.1 - English DD5.1] - MSUBS
Post by: Rάήνίјάч1234 on January 06, 2019, 10:03:00 PM
(http://extraimage.net/images/2019/01/02/ac82c2e13844c559a4e8718b27aa822b.png)

(http://extraimage.net/images/2018/05/29/93ef7f7d697804c642eb91e545931623.gif)

(http://extraimage.net/images/2019/01/06/d70e23aae239d982b3fa395d3b63ddd3.png)

Jack Ryan: Shadow Recruit (2014) 1080p BluRay x264 Dual Audio [Hindi DD5.1 - English DD5.1] - MSUBS ~ Ranvijay

Thanks To Hammer For Hindi Audio

Buy RDP Online

[img]http://extraimage.net/images/2018/04/07/c1f3b60db6e09ee0a82f86d837a04373.gif[/img]

Quote

Format                                   : Matroska
Format version                           : Version 4 / Version 2
File size                                : 4.50 GiB
Duration                                 : 1 h 45 min
Overall bit rate                         : 6 109 kb/s
Movie name                               : Jack Ryan: Shadow Recruit (2014) 1080p BluRay x264 Dual Audio [Hindi DD5.1 - English DD5.1] - MSUBS ~ Ranvijay

Video
ID                                       : 1
Format                                   : AVC
Format/Info                              : Advanced Video Codec
Duration                                 : 1 h 45 min
Bit rate                                 : 5 000 kb/s
Width                                    : 1 920 pixels
Height                                   : 800 pixels
Display aspect ratio                     : 2.40:1
Frame rate mode                          : Constant
Frame rate                               : 23.976 (24000/1001) FPS
Color space                              : YUV
Chroma subsampling                       : 4:2:0
Bit depth                                : 8 bits
Scan type                                : Progressive
Bits/(Pixel*Frame)                       : 0.136
Stream size                              : 3.69 GiB (82%)
Title                                    : ~Ranvijay~

Audio #1
ID                                       : 2
Format                                   : AC-3
Format/Info                              : Audio Coding 3
Codec ID                                 : A_AC3
Duration                                 : 1 h 45 min
Bit rate mode                            : Constant
Bit rate                                 : 640 kb/s
Channel(s)                               : 6 channels
Channel positions                        : Front: L C R, Side: L R, LFE
Sampling rate                            : 48.0 kHz
Frame rate                               : 31.250 FPS (1536 SPF)
Bit depth                                : 16 bits
Compression mode                         : Lossy
Stream size                              : 483 MiB (10%)
Title                                    : ~Ranvijay~
Language                                 : Hindi
Service kind                             : Complete Main
Default                                  : Yes
Forced                                   : Yes

Audio #2
ID                                       : 3
Format                                   : AC-3
Format/Info                              : Audio Coding 3
Codec ID                                 : A_AC3
Duration                                 : 1 h 45 min
Bit rate mode                            : Constant
Bit rate                                 : 448 kb/s
Channel(s)                               : 6 channels
Channel positions                        : Front: L C R, Side: L R, LFE
Sampling rate                            : 48.0 kHz
Frame rate                               : 31.250 FPS (1536 SPF)
Bit depth                                : 16 bits
Compression mode                         : Lossy
Stream size                              : 338 MiB (7%)
Title                                    : ~Ranvijay~
Language                                 : English
Service kind                             : Complete Main
Default                                  : No
Forced                                   : No

Text #1
ID                                       : 4
Format                                   : PGS
Muxing mode                              : zlib
Codec ID                                 : S_HDMV/PGS
Codec ID/Info                            : Picture based subtitle format used on BDs/HD-DVDs
Duration                                 : 1 h 37 min
Bit rate                                 : 35.9 kb/s
Count of elements                        : 2496
Stream size                              : 25.0 MiB (1%)
Title                                    : ~Ranvijay~
Language                                 : English
Default                                  : Yes
Forced                                   : Yes

Text #2
ID                                       : 5
Format                                   : PGS
Muxing mode                              : zlib
Codec ID                                 : S_HDMV/PGS
Codec ID/Info                            : Picture based subtitle format used on BDs/HD-DVDs
Duration                                 : 1 h 44 min
Bit rate                                 : 28.8 kb/s
Count of elements                        : 2564
Stream size                              : 21.6 MiB (0%)
Title                                    : ~Ranvijay~
Language                                 : Hindi
Default                                  : No
Forced                                   : No

[img width=800 height=94]http://extraimage.net/images/2018/01/08/1459e2c23167a4b9382224dfec762e0e.gif[/img]

[img width=800 height=333]http://extraimage.net/images/2019/01/06/1b27863a1adb5b96d2af7778c76fe76b.jpg[/img]
[img width=800 height=333]http://extraimage.net/images/2019/01/06/604ef9aaecbe827956731f3f2f8ad8a3.jpg[/img]
[img width=800 height=333]http://extraimage.net/images/2019/01/06/8b9fe6b5e8d1aa8652e1794da649e6fc.jpg[/img]
[img width=800 height=333]http://extraimage.net/images/2019/01/06/4b5a8e47a42846f318a354c58cc86430.jpg[/img]
[img width=800 height=333]http://extraimage.net/images/2019/01/06/f74efc4f5dcfa802992ada7699cfad0c.jpg[/img]
[img width=800 height=333]http://extraimage.net/images/2019/01/06/ab2db1ba9d6cdc5f6e6b6cb5df0b7ed0.jpg[/img]
[img width=800 height=333]http://extraimage.net/images/2019/01/06/688bcf0dbc7fdfe91a5bcdcedd8ba8c5.jpg[/img]
[img width=800 height=333]http://extraimage.net/images/2019/01/06/103030c1ea11b17ae6870aabd1baa782.jpg[/img]
[img width=800 height=333]http://extraimage.net/images/2019/01/06/9a357cb294348cb9f967b87c48e70505.jpg[/img]
[img width=800 height=333]http://extraimage.net/images/2019/01/06/11741071c8d3005519936cb6f975cbec.jpg[/img]
[img width=800 height=333]http://extraimage.net/images/2019/01/06/2a5791cdd0ba8b9a93cc051b70247b0c.jpg[/img]
[img width=800 height=333]http://extraimage.net/images/2019/01/06/337d09169f4d9ded986a3ce1526340b6.jpg[/img]
[img width=800 height=333]http://extraimage.net/images/2019/01/06/5be8fb60a118a86e4dd0ad98726b640a.jpg[/img]

:download:

Quote
http://acefile.co/f/5882904/jack-ryan-shadow-recruit-2014-1080p-bluray-x264-dual-audio-hindi-dd5-1-english-dd5-1-msubs-ranvijay-mkv
http://drive.google.com/uc?export=download&id=1cb0MKjlLjh5GtgfGM_imk2GgsEl8tB7X
http://uptobox.com/xksrqpy47tn0
http://userscloud.com/qp65lzmcjl8s
http://multiup.org/download/d22789c11c542683ec1106649f69269b/Jack_Ryan_Shadow_Recruit__2014__1080p_BluRay_x264_Dual_Audio__Hindi_DD5.1_-_English_DD5.1__-_MSUBS___Ranvijay.mkv
http://jheberg.net/download/jack-ryan-shadow-recruit-2014-1080p-bluray-x2hindi/
http://acefile.co/f/5882910/sample-jack-ryan-shadow-recruit-2014-1080p-bluray-x264-dual-audio-hindi-dd5-1-english-dd5-1-msubs-ranvijay-mkv

File Leeched & Uploaded From
(http://extraimage.net/images/2017/09/04/62fae27f763fd07090b599bd3d5064c2.jpg)
(http://extraimage.net/images/2017/03/23/ac408822fa208007a0cb5a1fb7e015de.png)
(http://extraimago.com/images/2016/10/24/a5888e337704f3547936bfd907ed4eba.png)
(http://2.bp.blogspot.com/-pyai9pasbqs/UspmWaRin0I/AAAAAAAAAP8/Rl3PDLc2VmE/s1600/6fe360de5335267cd2a98ca7b88b21966ec7ceb7_t.gif)
Don't walk as you are king, walk as you don't care who the king is....!!
Never argue with an idiot. They drag you down to their level and then beat you with experience?
Title: Re: Jack Ryan: Shadow Recruit (2014) 1080p BluRay x264 Dual Audio [Hindi DD5.1 - English DD5.1] - MS
Post by: askfriends on January 08, 2019, 01:33:26 PM
 :thank: :10on10:
 :rep:
Title: Re: Jack Ryan: Shadow Recruit (2014) 1080p BluRay x264 Dual Audio [Hindi DD5.1 - English DD5.1] - MS
Post by: jami5490 on January 15, 2019, 02:46:17 PM
:10on10::rep::bravo::claps::claps::thank: