+ ShareSpark.net »  :::: Dubbed Zone (Dubbed English in Hindi) » English Movies Dubbed in Hindi
|- The Hobbit Trilogy Collection (2012-2014) 720p Dual Audio BluRay [Hindi-English] [4.8GB]


Mastercard 10% Off

The Hobbit Trilogy Collection (2012-2014) 720p Dual Audio BluRay [Hindi-English] [4.8GB]

0 Members and 1 Guest are viewing this topic.

June 06, 2017, 11:00:23 PM
  • Team SSX
  • Royal Member
  • ***
  • Topic Author
  • Thank You: 162
  • Reputation: 144
  • Activity:
    0%
  • Country: in
  • Posts: 925
  • Topics: 196
  • Join Date: Nov 2011
  • ShareSpark Member


The Hobbit Trilogy Collection (2012-2014) 720p Dual Audio BluRay [Hindi-English] KartiKing

Hindi Audio: ...

 :ss:












The Hobbit An Unexpected Journey (2012) 720p Dual Audio BluRay

General
Unique ID : 174099937886080156596379779660017275320 (0x82FA6DA99883DAA399B77B9B8E8F91B8)
Complete name : 1.The Hobbit An Unexpected Journey (2012) 720p Dual Audio KartiKing Movies.DigitalMaza.Org.mkv
Format : Matroska
Format version : Version 4 / Version 2
File size : 1.76 GiB
Duration : 3 h 2 min
Overall bit rate : 1 381 kb/s
Movie name : The Hobbit An Unexpected Journey (2012) KartiKing Movies.DigitalMaza.Org
Encoded date : UTC 2017-02-25 10:38:26
Writing application : mkvmerge v9.9.0 ('Pick Up') 64bit
Writing library : libebml v1.3.4 + libmatroska v1.4.5

Video
ID : 2
Format : AVC
Format/Info : Advanced Video Codec
Format profile : [email protected]
Format settings, CABAC : Yes
Format settings, ReFrames : 5 frames
Codec ID : V_MPEG4/ISO/AVC
Duration : 3 h 2 min
Width : 1 280 pixels
Height : 720 pixels
Display aspect ratio : 2.40:1
Frame rate mode : Constant
Frame rate : 23.976 (24000/1001) FPS
Color space : YUV
Chroma subsampling : 4:2:0
Bit depth : 8 bits
Scan type : Progressive
Title : KartiKing Movies.DigitalMaza.Org
Language : English
Default : Yes
Forced : No
Color range : Limited
Color primaries : BT.709
Transfer characteristics : BT.709
Matrix coefficients : BT.709

Audio #1
ID : 3
Format : AAC
Format/Info : Advanced Audio Codec
Format profile : LC
Codec ID : A_AAC
Duration : 3 h 2 min
Channel(s) : 6 channels
Channel positions : Front: L C R, Side: L R, LFE
Sampling rate : 48.0 kHz
Frame rate : 46.875 FPS (1024 spf)
Compression mode : Lossy
Title : KartiKing Movies.DigitalMaza.Org
Language : English
Default : Yes
Forced : No

Audio #2
ID : 4
Format : AC-3
Format/Info : Audio Coding 3
Format settings, Endianness : Big
Codec ID : A_AC3
Duration : 3 h 2 min
Bit rate mode : Constant
Bit rate : 192 kb/s
Channel(s) : 2 channels
Channel positions : Front: L R
Sampling rate : 48.0 kHz
Frame rate : 31.250 FPS (1536 spf)
Bit depth : 16 bits
Compression mode : Lossy
Stream size : 251 MiB (14%)
Title : KartiKing Movies.DigitalMaza.Org
Language : Hindi
Service kind : Complete Main
Default : No
Forced : No

 :download:










The Hobbit The Desolation Of Smaug (2013) 720p Dual Audio Bluray

General
Unique ID : 239899241704757173619599041972399687683 (0xB47AE9CF919BE1CCAE893C5C885AC803)
Complete name : 2.The Hobbit The Desolation Of Smaug (2013) 720p Dual Audio KartiKing Movies.DigitalMaza.Org.mkv
Format : Matroska
Format version : Version 4 / Version 2
File size : 1.87 GiB
Duration : 3 h 6 min
Overall bit rate : 1 438 kb/s
Movie name : The Hobbit The Desolation Of Smaug (2013) KartiKing Movies.DigitalMaza.Org
Encoded date : UTC 2017-02-25 10:41:06
Writing application : mkvmerge v9.9.0 ('Pick Up') 64bit
Writing library : libebml v1.3.4 + libmatroska v1.4.5

Video
ID : 1
Format : AVC
Format/Info : Advanced Video Codec
Format profile : [email protected]
Format settings, CABAC : Yes
Format settings, ReFrames : 5 frames
Codec ID : V_MPEG4/ISO/AVC
Duration : 3 h 6 min
Bit rate : 1 052 kb/s
Width : 1 280 pixels
Height : 720 pixels
Display aspect ratio : 2.40:1
Frame rate mode : Constant
Frame rate : 23.976 (24000/1001) FPS
Color space : YUV
Chroma subsampling : 4:2:0
Bit depth : 8 bits
Scan type : Progressive
Bits/(Pixel*Frame) : 0.048
Stream size : 1.37 GiB (73%)
Title : KartiKing Movies.DigitalMaza.Org
Language : English
Default : Yes
Forced : No
Color range : Limited
Color primaries : BT.709
Transfer characteristics : BT.709
Matrix coefficients : BT.709

Audio #1
ID : 2
Format : AC-3
Format/Info : Audio Coding 3
Format settings, Endianness : Big
Codec ID : A_AC3
Duration : 3 h 6 min
Bit rate mode : Constant
Bit rate : 192 kb/s
Channel(s) : 6 channels
Channel positions : Front: L C R, Side: L R, LFE
Sampling rate : 48.0 kHz
Frame rate : 31.250 FPS (1536 spf)
Bit depth : 16 bits
Compression mode : Lossy
Stream size : 256 MiB (13%)
Title : KartiKing Movies.DigitalMaza.Org
Language : English
Service kind : Complete Main
Default : Yes
Forced : No

Audio #2
ID : 3
Format : AC-3
Format/Info : Audio Coding 3
Format settings, Endianness : Big
Codec ID : A_AC3
Duration : 3 h 6 min
Bit rate mode : Constant
Bit rate : 192 kb/s
Channel(s) : 6 channels
Channel positions : Front: L C R, Side: L R, LFE
Sampling rate : 48.0 kHz
Frame rate : 31.250 FPS (1536 spf)
Bit depth : 16 bits
Compression mode : Lossy
Stream size : 256 MiB (13%)
Title : KartiKing Movies.DigitalMaza.Org
Language : Hindi
Service kind : Complete Main
Default : No

 :download:










The The Hobbit The Battle of the Five Armies (2014) 720p Dual Audio BluRay

General
Unique ID : 170150489752841013594480734376553696028 (0x8001CAD5EC70B026AB0701C4AEF54B1C)
Complete name : 3.The The Hobbit The Battle of the Five Armies (2014) 720p Dual Audio KartiKing Movies.DigitalMaza.Org.mkv
Format : Matroska
Format version : Version 4 / Version 2
File size : 1.12 GiB
Duration : 2 h 24 min
Overall bit rate : 1 107 kb/s
Movie name : The Hobbit The Battle Of Five Armies (2014) KartiKing Movies.DigitalMaza.Org
Encoded date : UTC 2017-02-25 10:49:09
Writing application : mkvmerge v9.9.0 ('Pick Up') 64bit
Writing library : libebml v1.3.4 + libmatroska v1.4.5

Video
ID : 1
Format : AVC
Format/Info : Advanced Video Codec
Format profile : [email protected]
Format settings, CABAC : Yes
Format settings, ReFrames : 3 frames
Codec ID : V_MPEG4/ISO/AVC
Duration : 2 h 24 min
Bit rate : 849 kb/s
Width : 1 280 pixels
Height : 536 pixels
Display aspect ratio : 2.40:1
Frame rate mode : Constant
Frame rate : 23.976 (24000/1001) FPS
Color space : YUV
Chroma subsampling : 4:2:0
Bit depth : 8 bits
Scan type : Progressive
Bits/(Pixel*Frame) : 0.052
Stream size : 857 MiB (75%)
Title : KartiKing Movies.DigitalMaza.Org
Default : Yes
Forced : No
Color range : Limited
Color primaries : BT.709
Transfer characteristics : BT.709
Matrix coefficients : BT.709

Audio #1
ID : 2
Format : AC-3
Format/Info : Audio Coding 3
Format settings, Endianness : Big
Codec ID : A_AC3
Duration : 2 h 24 min
Bit rate mode : Constant
Bit rate : 128 kb/s
Channel(s) : 6 channels
Channel positions : Front: L C R, Side: L R, LFE
Sampling rate : 48.0 kHz
Frame rate : 31.250 FPS (1536 spf)
Bit depth : 16 bits
Compression mode : Lossy
Stream size : 132 MiB (12%)
Title : KartiKing Movies.DigitalMaza.Org
Language : Hindi
Service kind : Complete Main
Default : Yes
Forced : Yes

Audio #2
ID : 3
Format : AC-3
Format/Info : Audio Coding 3
Format settings, Endianness : Big
Codec ID : A_AC3
Duration : 2 h 24 min
Bit rate mode : Constant
Bit rate : 128 kb/s
Channel(s) : 6 channels
Channel positions : Front: L C R, Side: L R, LFE
Sampling rate : 48.0 kHz
Frame rate : 31.250 FPS (1536 spf)
Bit depth : 16 bits
Compression mode : Lossy
Stream size : 132 MiB (12%)
Title : KartiKing Movies.DigitalMaza.Org
Language : English
Service kind : Complete Main
Default : No
Forced : No

 :download:





Share this topic on FacebookShare this topic on GoogleShare this topic on MySpaceShare this topic on TwitterShare this topic on Yahoo

« Last Edit: June 06, 2017, 11:01:11 PM by -Tushar- »


:bounce:
  :bounce:

Thanks given by:


 

Related Topics





Back to top