+ ShareSpark.net »  :::: Dubbed Zone (Dubbed English in Hindi) » English Movies Dubbed in Hindi
|- Jack Ryan Shadow Recruit 2014 720p Esub BluRay Dual Audio English Hindi 5.1 GOPI SAHI


TV and Appliances

Jack Ryan Shadow Recruit 2014 720p Esub BluRay Dual Audio English Hindi 5.1 GOPI SAHI

0 Members and 1 Guest are viewing this topic.

July 16, 2017, 03:07:29 PM
  • Addic7ed
  • Special Member
  • ****
  • Topic Author
  • Thank You: 401
  • Reputation: 90
  • Activity:
    0%
  • Country: in
  • Posts: 815
  • Topics: 770
  • Join Date: Oct 2013
  • ShareSpark Member


Video
ID                             : 1
Format                         : AVC
Codec ID                       : V_MPEG4/ISO/AVC
Duration                       : 1 h 41 min
Bit rate                       : 975 kb/s
Width                          : 1 280 pixels
Height                         : 536 pixels
Display aspect ratio           : 2.40:1
Frame rate mode                : Constant
Frame rate                     : 23.976 (24000/1001) FPS
Original frame rate            : 23.976 (23976/1000) FPS
Stream size                    : 719 MiB (85%)
Writing library                : x264 core 142 r2409 d6b4e63

Audio #1
Format                         : AAC
Duration                       : 1 h 41 min
Bit rate                       : 84.5 kb/s
Channel(s)                     : 6 channels
Channel positions              : Front: L C R, Side: L R, LFE
Sampling rate                  : 44.1 kHz
Frame rate                     : 43.066 FPS (1024 spf)
Stream size                    : 61.1 MiB (7%)
Language                       : English

Audio #2
Format                         : AAC
Duration                       : 1 h 41 min
Bit rate                       : 90.7 kb/s
Channel(s)                     : 6 channels
Channel positions              : Front: L C R, Side: L R, LFE
Sampling rate                  : 44.1 kHz
Frame rate                     : 43.066 FPS (1024 spf)
Stream size                    : 65.6 MiB (8%)
Language                       : Hindi

Text
Duration                       : 1 h 37 min
Stream size                    : 46.8 KiB (0%)
Language                       : English




Share this topic on FacebookShare this topic on GoogleShare this topic on MySpaceShare this topic on TwitterShare this topic on Yahoo




July 16, 2017, 07:13:40 PM
Reply #1
  • Hot Member
  • ***
  • Thank You: 25
  • Reputation: 8
  • Activity:
    6.4%
  • Country: bd
  • Posts: 623
  • Topics: 12
  • Join Date: Jun 2017
  • ShareSpark Member

Tags:
 

Related Topics





Back to top