+ ShareSpark.net »  :::: Bollywood Zone » Indian PC Videos
|- Anjaam (1994) Hindi 1080p Untouched Webhd AVC {Music Video} ~ Special26


Redmi 6A

Anjaam (1994) Hindi 1080p Untouched Webhd AVC {Music Video} ~ Special26

0 Members and 1 Guest are viewing this topic.

December 04, 2018, 11:17:35 AM
  • Conqueror
  • Legend Member
  • *****
  • Topic Author
  • Thank You: 5183
  • Reputation: 1082
  • Activity:
    100%
  • Country: np
  • Posts: 1814
  • Topics: 1549
  • Join Date: Jul 2016
  • Love Forever !!
Anjaam (1994) Hindi 1080p Untouched Webhd AVC {Music Video} ~ Special26



 :info:
Format                         : Matroska
Format version                 : Version 4
File size                      : 2.52 GB
Overall bit rate               : 13.5 Mb/s


Video
ID                             : 1
Format                         : AVC
Format/Info                    : Advanced Video Codec
Format profile                 : [email protected]
Format settings                : CABAC / 4 Ref Frames
Format settings, CABAC         : Yes
Format settings, ReFrames      : 4 frames
Codec ID                       : V_MPEG4/ISO/AVC
Bit rate                       : 13.3 Mb/s
Width                          : 1 920 pixels
Height                         : 832 pixels
Display aspect ratio           : 2.35:1
Frame rate mode                : Constant
Frame rate                     : 24.000 FPS
Color space                    : YUV
Chroma subsampling             : 4:2:0
Bit depth                      : 8 bits
Scan type                      : Progressive
Bits/(Pixel*Frame)             : 0.348
Stream size                    : 468 MiB (99%)
Default                        : Yes
Forced                         : No


Audio
ID                             : 2
Format                         : AAC LC
Format/Info                    : Advanced Audio Codec
Codec ID                       : A_AAC-2
Bit rate                       : 192 kb/s
Channel(s)                     : 2 channels
Channel layout                 : L R
Sampling rate                  : 48.0 kHz
Frame rate                     : 46.875 FPS (1024 SPF)
Compression mode               : Lossy
Delay relative to video        : 13 ms
Stream size                    : 6.74 MiB (1%)
Default                        : Yes
Forced                         : No



 :ss:



















 :download:

Share this topic on FacebookShare this topic on GoogleShare this topic on MySpaceShare this topic on TwitterShare this topic on Yahoo

« Last Edit: January 12, 2019, 04:01:43 PM by Special26 »


Thanks given by:


January 11, 2019, 11:30:11 AM
Reply #1
  • Begginer
  • **
  • Thank You: 0
  • Reputation: 1
  • Activity:
    0.6%
  • Country: in
  • Posts: 52
  • Topics: 0
  • Join Date: Jul 2018
  • ShareSpark Member

January 12, 2019, 04:03:30 PM
Reply #2
  • Conqueror
  • Legend Member
  • *****
  • Topic Author
  • Thank You: 5183
  • Reputation: 1082
  • Activity:
    100%
  • Country: np
  • Posts: 1814
  • Topics: 1549
  • Join Date: Jul 2016
  • Love Forever !!

Tags:
 

Related Topics

  Subject / Started by Replies Last post
2 Replies
658 Views
Last post November 29, 2018, 06:14:33 AM
by gprem54
1 Replies
475 Views
Last post January 07, 2019, 11:55:55 PM
by MayurSuccess
4 Replies
627 Views
Last post January 08, 2019, 05:58:24 PM
by MayurSuccess
4 Replies
375 Views
Last post January 17, 2019, 08:30:51 PM
by javedn
0 Replies
115 Views
Last post January 19, 2019, 08:55:32 PM
by Special26




Back to top