+ ShareSpark.net »  :::: Dubbed Zone (Dubbed English in Hindi) » English Movies Dubbed in Hindi
|-  Jack Ryan Shadow Recruit (2014) 720p Blu-Ray x264 [Dual-Audio] [English DD 5.1 + Hindi DD 5.1] - Ma


TV and Appliances

Jack Ryan Shadow Recruit (2014) 720p Blu-Ray x264 [Dual-Audio] [English DD 5.1 + Hindi DD 5.1] - Ma

0 Members and 1 Guest are viewing this topic.

October 30, 2014, 11:34:15 AM
  • Semi Newbie
  • **
  • Topic Author
  • Thank You: 13
  • Reputation: 7
  • Activity:
    0%
  • Country: in
  • Posts: 28
  • Topics: 26
  • Join Date: Oct 2014
  • ShareSpark Member

Jack Ryan Shadow Recruit (2014) 720p Blu-Ray x264 [Dual-Audio] [English DD 5.1 + Hindi DD 5.1] - Mafiaking 




Quote
Video
ID : 1
Format : AVC
Format/Info : Advanced Video Codec
Format profile : [email protected]
Format settings, CABAC : Yes
Format settings, ReFrames : 4 frames
Codec ID : V_MPEG4/ISO/AVC
Duration : 1h 45mn
Bit rate : 900 Kbps
Width : 1 280 pixels
Height : 536 pixels
Display aspect ratio : 2.40:1
Frame rate mode : Constant
Frame rate : 23.976 fps
Color space : YUV
Chroma subsampling : 4:2:0
Bit depth : 8 bits
Scan type : Progressive
Bits/(Pixel*Frame) : 0.055
Stream size : 661 MiB (68%)
Title : Mafiaking
Language : English
Default : Yes
Forced : No


Audio #1
ID : 2
Format : AC-3
Format/Info : Audio Coding 3
Mode extension : CM (complete main)
Format settings, Endianness : Big
Codec ID : A_AC3
Duration : 1h 45mn
Bit rate mode : Constant
Bit rate : 192 Kbps
Channel(s) : 6 channels
Channel positions : Front: L C R, Side: L R, LFE
Sampling rate : 48.0 KHz
Bit depth : 16 bits
Compression mode : Lossy
Delay relative to video : 1s 100ms
Stream size : 145 MiB (15%)
Title : Mafiaking
Language : Hindi
Default : Yes
Forced : No


Audio #2
ID : 3
Format : AC-3
Format/Info : Audio Coding 3
Mode extension : CM (complete main)
Format settings, Endianness : Big
Codec ID : A_AC3
Duration : 1h 45mn
Bit rate mode : Constant
Bit rate : 192 Kbps
Channel(s) : 6 channels
Channel positions : Front: L C R, Side: L R, LFE
Sampling rate : 48.0 KHz
Bit depth : 16 bits
Compression mode : Lossy
Stream size : 145 MiB (15%)
Title : Mafiaking
Language : English
Default : No
Forced : No





Download:
Please Buy Premium From My Link If you want to support My Work


SINGLE DIRECT FAST LINKS


Code: [Select]
http://xerver.co/x6rhae6xvb1g/Jack_Ryan_Shadow_Recruit_(2014)_720p_Blu-Ray_x264__5BDual-Audio_5D__5BEnglish_DD_5.1_+_Hindi_DD_5.1_5D_-_Mafiaking_-__5BD3Si_MaNiaCs_5D.mkv
http://www.chayfile.com/hbdlgnfvzk4s.html
http://uptobox.com/xti4yp068jcl
http://www.kingfiles.net/8sz63k0bzt3t/Jack_Ryan_Shadow_Recruit__2014__720p_Blu-Ray_x264__5BDual-Audio_5D__5BEnglish_DD_5.1___Hindi_DD_5.1_5D_-_Mafiaking_-__5BD3Si_MaNiaCs_5D.mkv

Share this topic on FacebookShare this topic on GoogleShare this topic on MySpaceShare this topic on TwitterShare this topic on Yahoo

« Last Edit: October 30, 2014, 12:08:59 PM by rock99 »


Thanks given by:


Tags:
 

Related Topics





Back to top